Rogue One Movie Download In Hindi

Posted on
  1. New Hindi Movies Download Free
  2. Rogue One Free Movies
  3. Putlocker Rogue One Full Movie
Rogue One Movie Download In Hindi

Mission: Impossible 5 - Rogue Nation 2015 Movie BluRay Dual Audio Hindi Eng 400mb 480p 1.3GB 720p 6GB 1080p CIA chief Hunley (Baldwin) convinces a Senate committee to disband the IMF (Impossible Mission Force), of which Ethan Hunt (Cruise) is a key member. Jet li movie in hindi Mp4 HD Video Download Hero jet li full movie hindi dubbed best martial a: pin. Rogue assassin (War) movie image Jet Li Pinterest Rogue Rogue assassin (War) movie image Jet Li Pinterest Rogue assassin, Jet li and Jason statham: pin. Jet Li GIF - Find & Share on GIPHY Jet Li GIF: pin. Jet li in expendables 2.


Rogue 2017 Hindi Dubbed 1080p WEB-DL x264 AAC { TaRa }.mkv

General
Complete name : Rogue 2017 Hindi Dubbed 1080p WEB-DL x264 AAC { TaRa }.mkv
Format : Matroska
Format version : Version 4
File size : 2.23 GiB
Duration : 1 h 43 min
Overall bit rate : 3 101 kb/s
Video
ID : 1
Format : AVC
Format/Info : Advanced Video Codec
Format profile : [email protected]
Format settings : CABAC / 4 Ref Frames
Format settings, CABAC : Yes
Format settings, Reference : 4 frames
Codec ID : V_MPEG4/ISO/AVC
Duration : 1 h 43 min
Bit rate : 3 000 kb/s
Width : 1 920 pixels
Height : 1 080 pixels
Display aspect ratio : 16:9
Frame rate mode : Constant
Frame rate : 25.000 FPS
Color space : YUV
Chroma subsampling : 4:2:0
Bit depth : 8 bits
Scan type : Progressive
Bits/(Pixel*Frame) : 0.058
Stream size : 2.16 GiB (97%)
Housetopcouplekissy8anne 28 online free games to play. Title : ...::::: TaRa :::::...
Language : Hindi
Default : Yes
Forced : No
Audio
ID : 2
Format : AAC LC
Format/Info : Advanced Audio Codec Low Complexity
Codec ID : A_AAC-2
Duration : 1 h 43 min
Bit rate : 96.0 kb/s
Channel(s) : 2 channels
Channel layout : L R
Sampling rate : 48.0 kHz
Frame rate : 46.875 FPS (1024 SPF)
Compression mode : Lossy
Stream size : 70.7 MiB (3%)
Title : ...::::: TaRa :::::...
Language : Hindi
Default : Yes
Forced : No

New Hindi Movies Download Free

Download

Rogue One Free Movies

Rogue One Movie Download In Hindi

Putlocker Rogue One Full Movie