Kung Fu Panda S02e04 Aac

Posted on

Jmac

Kung fu panda s02e04 aac downloadKung fu panda s02e04 aac download

General
Complete name :Kung Fu Panda 2 (2011) 1080p 10bit Bluray x265 HEVC [Org BD 5.1 Hindi + AAC 7.1 English] ESubs ~ {RoCK-HD-STAr}.mkv
Format : Matroska
Format version : Version 4 / Version 2
File size : 2.91 GiB
Duration : 1 h 30 min
Overall bit rate : 4 601 kb/s
Movie name : Kung Fu Panda 2 (2011) 1080p 10bit Bluray x265 HEVC [Org BD 5.1 Hindi + AAC 7.1 English] ESubs---The King Of Entertainment ~ {RoCK-HD-STAr}
Video
ID : 1
Format : HEVC
Format/Info : High Efficiency Video Coding
Format profile : Main [email protected]@Main
Codec ID : V_MPEGH/ISO/HEVC
Duration : 1 h 30 min
Bit rate : 3 500 kb/s
Width : 1 920 pixels
Height : 816 pixels
Display aspect ratio : 2.35:1
Frame rate mode : Constant
Frame rate : 23.976 (24000/1001) FPS
Color space : YUV
Chroma subsampling : 4:2:0
Bit depth : 10 bits
Bits/(Pixel*Frame) : 0.093
Stream size : 2.21 GiB (76%)
Title : {RoCK-HD-STAr}
Default : Yes
Forced : No
Audio #1
ID : 2
Format : AAC
Format/Info : Advanced Audio Codec
Format profile : LC
Codec ID : A_AAC-2
Duration : 1 h 30 min
Bit rate : 453 kb/s
Channel(s) : 8 channels
Channel positions : Front: L C R, Side: L R, Back: L R, LFE
Sampling rate : 48.0 kHz
Frame rate : 46.875 FPS (1024 SPF)
Compression mode : Lossy
Delay relative to video : 20 ms
Stream size : 293 MiB (10%)
Title : {RoCK-HD-STAr}
Language : English
Default : Yes
Forced : No
Audio #2
ID : 4
Format : AC-3
Format/Info : Audio Coding 3
Codec ID : A_AC3
Duration : 1 h 30 min
Bit rate mode : Constant
Bit rate : 640 kb/s
Channel(s) : 6 channels
Channel positions : Front: L C R, Side: L R, LFE
Sampling rate : 48.0 kHz
Frame rate : 31.250 FPS (1536 SPF)
Bit depth : 16 bits
Compression mode : Lossy
Stream size : 414 MiB (14%)
Title : {RoCK-HD-STAr}
Language : Hindi
Service kind : Complete Main
Default : No
Forced : No
Text
ID : 3
Format : VobSub
Muxing mode : zlib
Codec ID : S_VOBSUB
Codec ID/Info : Picture based subtitle format used on DVDs
Duration : 1 h 30 min
Bit rate : 7 409 b/s
Count of elements : 875
Stream size : 4.77 MiB (0%)
Title : {RoCK-HD-STAr}
Language : English
Default : No
Forced : No
Menu
00:00:00.000 : en:Chapter 01
00:03:54.275 : en:Chapter 02
00:10:35.343 : en:Chapter 03
00:16:09.385 : en:Chapter 04
00:21:15.774 : en:Chapter 05
00:29:56.628 : en:Chapter 06
00:36:53.878 : en:Chapter 07
00:41:14.180 : en:Chapter 08
00:49:44.815 : en:Chapter 09
00:54:06.826 : en:Chapter 10
00:58:54.781 : en:Chapter 11
01:05:09.238 : en:Chapter 12
01:11:43.799 : en:Chapter 13
01:15:31.902 : en:Chapter 14
01:21:15.871 : en:Chapter 15

Kung Fu Panda The Paws of Destiny S Hindi 720p AMZN WEBRip x264 AAC 6CH - LOKiHD - Telly.mkv 199.82MB; Kung Fu Panda The Paws of Destiny S Hindi 720p AMZN WEBRip x264 AAC 6CH - LOKiHD - Telly.mkv 199.78MB; Kung Fu Panda The Paws of Destiny S Hindi 720p AMZN WEBRip x264 AAC 6CH - LOKiHD - Telly.mkv 199.74MB; Kung Fu.

Kung Fu Series Free

Kung

Kung Fu Panda S02e04 Aac Download

  • Seedpeer.me Kung.Fu.Panda.Legends.of.Awesomeness.S02E14.720p.WEB-DL.x264.AAC Tv Misc 5 months torrentfunk.com Kung Fu Panda Legends of Awesomeness S02E14 720p WEB-DL x264 Television 1 year limetorrents.info Kung-Fu-Panda-Legends-of-Awesomeness-S02E14-720p-WEB-DL-x264-AAC Movies 2 days magnetdl.com Kung.Fu.Panda.Legends.of.Awesomeness.S02E14.
  • Search for and download any torrent from the pirate bay using search query legends. Direct download via magnet link.
  • Opis: Kung Fu Panda: Legends of Awesomeness tells the continuing adventures of Po as he trains, protects, fights, teaches, learns.